Subtitles with MPEG2 TS not working - showing just one line.



  • Subtitles with MPEG2 TS not working - showing just one line. I can provide sample file but since it is a recording I will send the download link only via email request. Recording is from Finnish DVB-T2 and e.g. VLC shows the subtitles just fine.


  • COMMUNITY REP

    @Lihamakarooni
    Yes send me in a private message or upload to cloud .

    My device for Bug-Report:
    iPad Air 2 - iOS 9.2.1

    0


  • Did you get my chat message? There is link where you can download an example file.


  • COMMUNITY REP

    @Lihamakarooni
    Yes I have your sample thx ^^

    My device for Bug-Report:
    iPad Air 2 - iOS 9.2.1

    0

  • COMMUNITY REP

    Test again
    the sample
    (http://1drv.ms/1PgWpYt ) for this user. The bug showing just one line is fixed.

    But in subtitle menu missing this subtitle.

    Text #3
    ID : 3051 (0xBEB)
    Menu ID : 1 (0x1)
    Format : DVB Subtitle
    Codec ID : 6
    Language : Dutch

    Text #4
    ID : 5001 (0x1389)-100
    Menu ID : 1 (0x1)
    Format : Teletext
    Language : Finnish

    Format : MPEG-TS
    File size : 726 MiB
    Duration : 29mn 8s
    Overall bit rate mode : Variable
    Overall bit rate : 3 482 Kbps

    Video
    ID : 514 (0x202)
    Menu ID : 1 (0x1)
    Format : MPEG Video
    Format version : Version 2
    Format profile : Main@Main
    Format settings, BVOP : Yes
    Format settings, Matrix : Custom
    Format settings, GOP : Variable
    Format settings, picture structure : Frame
    Codec ID : 2
    Duration : 29mn 8s
    Bit rate mode : Variable
    Bit rate : 3 083 Kbps
    Maximum bit rate : 15.0 Mbps
    Width : 720 pixels
    Height : 576 pixels
    Display aspect ratio : 16:9
    Frame rate : 25.000 fps
    Standard : PAL
    Color space : YUV
    Chroma subsampling : 4:2:0
    Bit depth : 8 bits
    Scan type : Interlaced
    Scan order : Top Field First
    Compression mode : Lossy
    Bits/(Pixel*Frame) : 0.297
    Stream size : 643 MiB (89%)

    Audio
    ID : 670 (0x29E)
    Menu ID : 1 (0x1)
    Format : MPEG Audio
    Format version : Version 1
    Format profile : Layer 2
    Codec ID : 4
    Duration : 29mn 8s
    Bit rate mode : Constant
    Bit rate : 224 Kbps
    Maximum bit rate : 252 Kbps
    Channel(s) : 2 channels
    Sampling rate : 48.0 KHz
    Compression mode : Lossy
    Delay relative to video : -530ms
    Stream size : 46.7 MiB (6%)
    Language : Swedish

    Text #1
    ID : 3027 (0xBD3)
    Menu ID : 1 (0x1)
    Format : DVB Subtitle
    Codec ID : 6
    Duration : 29mn 1s
    Delay relative to video : 5s 87ms
    Language : Finnish

    Text #2
    ID : 3028 (0xBD4)
    Menu ID : 1 (0x1)
    Format : DVB Subtitle
    Codec ID : 6
    Delay relative to video : 8s 273ms
    Language : Swedish

    Text #3
    ID : 3051 (0xBEB)
    Menu ID : 1 (0x1)
    Format : DVB Subtitle
    Codec ID : 6
    Language : Dutch

    Text #4
    ID : 5001 (0x1389)-100
    Menu ID : 1 (0x1)
    Format : Teletext
    Language : Finnish

    Menu
    ID : 259 (0x103)
    Menu ID : 1 (0x1)
    Duration : 29mn 8s
    List : 514 (0x202) (MPEG Video) / 670 (0x29E) (MPEG Audio, Swedish) / 3027 (0xBD3) (DVB Subtitle, Finnish) / 3028 (0xBD4) (DVB Subtitle, Swedish) / 5001 (0x1389)-100 (Teletext, fi) / 6003 (0x1773) () / 3051 (0xBEB) (DVB Subtitle, Dutch)
    Language : / Swedish / Finnish / S

    My device for Bug-Report:
    iPad Air 2 - iOS 9.2.1

    0

  • COMMUNITY REP

    My device for Bug-Report:
    iPad Air 2 - iOS 9.2.1

    0

Log in to reply