Xvid problem



  • Hello,

    after last update I have a problem with Xvid files. Movies are not smooth - like frame drop all the time.
    My config: IOS 9.2.1 iPad Air 64 GB Wi-Fi, latest nPlayer 3.2.0
    MediaInfo report below:
    Format : AVI
    Format/Info : Audio Video Interleave
    File size : 346 MiB
    Duration : 41mn 58s
    Overall bit rate : 1 154 Kbps
    Writing application : VirtualDubMod 1.5.10.1 (build 2366/release)
    Writing library : VirtualDubMod build 2366/release

    Video
    ID : 0
    Format : MPEG-4 Visual
    Format profile : Advanced Simple@L5
    Format settings, BVOP : 2
    Format settings, QPel : No
    Format settings, GMC : No warppoints
    Format settings, Matrix : Default (H.263)
    Muxing mode : Packed bitstream
    Codec ID : XVID
    Codec ID/Hint : XviD
    Duration : 41mn 58s
    Bit rate : 1 016 Kbps
    Width : 624 pixels
    Height : 352 pixels
    Display aspect ratio : 16:9
    Frame rate : 25.000 fps
    Color space : YUV
    Chroma subsampling : 4:2:0
    Bit depth : 8 bits
    Scan type : Progressive
    Compression mode : Lossy
    Bits/(Pixel*Frame) : 0.185
    Stream size : 305 MiB (88%)
    Writing library : XviD 1.2.1 (UTC 2008-12-04)

    Audio
    ID : 1
    Format : MPEG Audio
    Format version : Version 1
    Format profile : Layer 3
    Mode : Joint stereo
    Mode extension : MS Stereo
    Codec ID : 55
    Codec ID/Hint : MP3
    Duration : 41mn 58s
    Bit rate mode : Constant
    Bit rate : 128 Kbps
    Channel(s) : 2 channels
    Sampling rate : 48.0 KHz
    Compression mode : Lossy
    Stream size : 38.4 MiB (11%)
    Alignment : Aligned on interleaves
    Interleave, duration : 40 ms (1.00 video frame)
    Interleave, preload duration : 504 ms

    Previous version worked without any issues.

    P


  • COMMUNITY REP

    @waldor Need the sample

    My device for Bug-Report:
    iPad Air 2 - iOS 9.2.1

    0

  • COMMUNITY REP

    Thx for the sample.
    Notice: The sample is in private message

    My device for Bug-Report:
    iPad Air 2 - iOS 9.2.1

    0


  • Me too.
    The other video players are better.
    nPlayer has the luster lost.


Log in to reply